DOWNLOAD PORNO
MEMBER AREA
Login :  
Password :  
   
   
Register
Lost Password?
Porno cams

Welcome to the best porn torrent tracker! With us you will always find plenty of fresh and quality porn that can be downloaded at high speed. This free porn torrent tracker is the best of its kind. At any time you can download free torrent porn, without registration. Add porn torrent free to your bookmarks, and you will never regret the time that you spend ...

Oral → Hollyhanna (myfreecams) Deepthroat fuck machine

Run Time: NULL

Size: 60.23 MB (63,160,693 bytes)

Type: Movie Clip

Description: Recorded from myfreecams. Enjoy. Format : MPEG-4 Format profile : Base Media Codec ID : isom File size : 58.8 MiB Duration : 6mn 51s Overall bit rate : 1 198 Kbps Encoded date : UTC 2010-09-14 05:16:05 Tagged date : UTC 2010-09-14 05:16:05 Video ID : 1 Format : AVC Format/Info : Advanced Video Codec Format profile : [email protected] Format settings, CABAC : No Format settings, ReFrames : 1 frame Codec ID : avc1 Codec ID/Info : Advanced Video Coding Duration : 6mn 51s Bit rate mode : Variable Bit rate : 1 100 Kbps Width : 476 pixels Height : 360 pixels Display aspect ratio : 4:3 Frame rate mode : Constant Frame rate : 30.000 fps Standard : NTSC Color space : YUV Chroma subsampling : 4:2:0 Bit depth : 8 bits Scan type : Progressive Bits/(Pixel*Frame) : 0.214 Stream size : 54.0 MiB (92%) Language : English Encoded date : UTC 2010-09-14 05:16:05 Tagged date : UTC 2010-09-14 05:16:05 Audio ID : 2 Format : AAC Format/Info : Advanced Audio Codec Format version : Version 4 Format profile : LC Format settings, SBR : No Codec ID : 40 Duration : 6mn 51s Bit rate mode : Constant Bit rate : 96.0 Kbps Channel(s) : 2 channels Channel positions : Front: L R Sampling rate : 48.0 KHz Stream size : 4.71 MiB (8%) Language : English Encoded date : UTC 2010-09-14 05:16:05 Tagged date : UTC 2010-09-14 05:16:05


Download: Hollyhanna (myfreecams) Deepthroat fuck machine (19.38 Kb), Snatched: 2700
Seeders:  183 
Leechers:  25 
Total size: 60.23 Mb
SHA Hash: 875a8a8cd876c59b8eef226ebffa2277db3796a2

Filelist (4)







Comments: 0
Views: 17759
RUSSIAN WEB-CAMS
TOP DOWNLOADS
PARTNERS


This web-site is intended for adult audiences if you are under 18 years of age immediately leave this site!

This content requires Adobe Flash Player 9.0 (or higher).